<?xml version="1.0" standalone="no"?>
<!DOCTYPE svg PUBLIC "-//W3C//DTD SVG 1.1//EN" "http://www.w3.org/Graphics/SVG/1.1/DTD/svg11.dtd" >
<svg xmlns="http://www.w3.org/2000/svg">
<metadata>Generated by IcoMoon</metadata>
<defs>
<font id="md-font" horiz-adv-x="512">
<font-face units-per-em="512" ascent="480" descent="-32" />
<missing-glyph horiz-adv-x="512" />
<glyph unicode="&#x20;" d="" horiz-adv-x="256" />
<glyph unicode="&#xe600;" d="M279.82 415.695l-191.61-191.61 194.109-194.133c6.351-6.57 10.252-15.519 10.252-25.38 0-20.2-16.372-36.572-36.572-36.572-9.862 0-18.81 3.913-25.381 10.252l-0.012-0.012-219.417 219.441c-6.888 6.656-11.191 15.981-11.191 26.319 0 0.024 0 0.061 0 0.085s0 0.049 0 0.073c0 10.338 4.303 19.675 11.191 26.319l-0.012 0.012 219.526 219.331c6.571 6.303 15.47 10.179 25.295 10.179 20.2 0 36.572-16.372 36.572-36.571 0-11.094-4.95-21.029-12.751-27.733z" horiz-adv-x="293" />
<glyph unicode="&#xe601;" d="M12.751 415.695l191.61-191.61-194.109-194.133c-6.351-6.57-10.252-15.519-10.252-25.38 0-20.2 16.372-36.572 36.572-36.572 9.862 0 18.81 3.913 25.381 10.252l0.012-0.012 219.417 219.441c6.887 6.656 11.191 15.981 11.191 26.319 0 0.024 0 0.061 0 0.085s0 0.049 0 0.073c0 10.338-4.303 19.675-11.191 26.319l0.012 0.012-219.526 219.331c-6.559 6.303-15.469 10.179-25.295 10.179-20.2 0-36.572-16.372-36.572-36.571 0-11.094 4.949-21.029 12.751-27.733z" horiz-adv-x="293" />
<glyph unicode="&#xe602;" d="M7.219 202.951l186.494-222.76c13.613-16.252 35.875-16.252 49.488 0l186.494 222.76c13.613 16.252 7.404 29.559-13.791 29.559h-98.044c-10.598 0-24.574 0-38.549 0v208.941c0 21.195-17.347 38.549-38.549 38.549h-44.616c-21.202 0-38.549-17.347-38.549-38.549v-208.941c-13.976 0-27.952 0-38.549 0h-98.030c-21.202 0-27.404-13.307-13.798-29.559z" horiz-adv-x="437" />
<glyph unicode="&#xe603;" d="M275.328 471.541l-261.043-218.536c-19.045-15.952-19.045-42.040 0-57.993l261.043-218.544c19.045-15.952 34.639-8.677 34.639 16.161v114.877c0 12.418 0 28.796 0 45.174h244.848c24.837 0 45.174 20.329 45.174 45.183v52.284c0 24.846-20.328 45.174-45.174 45.174h-244.848c0 16.378 0 32.756 0 45.174v114.877c0 24.846-15.594 32.113-34.639 16.169z" horiz-adv-x="600" />
<glyph unicode="&#xe604;" d="M324.661-23.548l261.043 218.544c19.045 15.952 19.045 42.048 0 58.001l-261.043 218.544c-19.045 15.952-34.639 8.676-34.639-16.161v-114.877c0-12.418 0-28.796 0-45.174h-244.848c-24.837 0-45.174-20.328-45.174-45.182v-52.283c0-24.846 20.328-45.174 45.174-45.174h244.848c0-16.377 0-32.755 0-45.174v-114.877c0-24.862 15.594-32.13 34.639-16.186z" horiz-adv-x="600" />
<glyph unicode="&#xe605;" d="M429.702 245.049l-186.494 222.76c-13.613 16.252-35.882 16.252-49.495 0l-186.494-222.76c-13.613-16.252-7.404-29.559 13.791-29.559h98.030c10.597 0 24.573 0 38.549 0v-208.941c0-21.195 17.347-38.549 38.549-38.549h44.616c21.209 0 38.549 17.347 38.549 38.549v208.941c13.976 0 27.952 0 38.549 0h98.030c21.224 0 27.418 13.308 13.82 29.559z" horiz-adv-x="437" />
<glyph unicode="&#xe606;" d="M0 224.017l380.336 255.983v-153.965c0 0 438.571-33.672 438.571-358.035 0 0-55.484 133.131-267.662 158.366-34.718 4.128-87.439 8.176-171.046 8.176v-166.508l-380.199 255.983z" horiz-adv-x="819" />
<glyph unicode="&#xe607;" d="M160 480h72v-512h-72v512zM0 480h104v-512h-104v512zM296 480h64v-512h-64v512zM512 480h96v-512h-96v512zM416 480h40v-512h-40v512z" horiz-adv-x="608" />
<glyph unicode="&#xe608;" d="M400.28 51.784h-372.36c-15.424 0-27.92 12.504-27.92 27.928s12.504 27.928 27.92 27.928 27.92 12.504 27.92 27.928v186.176c0 71.976 58.36 130.328 130.328 130.328 0 15.424 12.504 27.928 27.944 27.928 15.424 0 27.92-12.504 27.92-27.928 71.984 0 130.328-58.352 130.328-130.328v-186.184c0-15.424 12.504-27.928 27.92-27.928 15.44 0 27.936-12.504 27.936-27.928s-12.496-27.92-27.936-27.92zM214.112-32c-30.856 0-55.856 25-55.856 55.856h111.704c-0.008-30.856-25.008-55.856-55.848-55.856z" horiz-adv-x="428" />
<glyph unicode="&#xe609;" d="M568.783 466.769v-289.908l-67.555 72.574-67.536-72.565v290.418c-72.49-29.375-99.676-99.63-99.676-99.63s-38.384 112.341-166.859 112.341-167.156-112.341-167.156-112.341v-399.511c0 0 48.544 112.841 167.156 112.841s166.859-112.99 166.859-112.99 43.367 112.99 166.897 112.99c123.558 0 167.12-112.841 167.12-112.841v397.034c0 0-27.148 71.405-99.249 101.587zM433.683 176.807v0.019l0.019-0.019h-0.019zM568.783 176.807h-0.019l0.019 0.028v-0.028zM568.783 176.807v0.028l-0.019-0.028zM433.683 176.807h0.019l-0.019 0.019z" horiz-adv-x="668" />
<glyph unicode="&#xe60a;" d="M500.904 480c-123.528 0-166.894-112.348-166.894-112.348s-38.384 112.348-166.857 112.348-167.154-112.348-167.154-112.348v-399.503c0 0 48.543 112.839 167.154 112.839s166.857-112.988 166.857-112.988 43.365 112.988 166.894 112.988c123.556 0 167.116-112.839 167.116-112.839v397.036c0 0-43.561 114.816-167.116 114.816zM167.154 127.378c-49.888 0-89.756-15.457-120.763-36.166v267.319c9.222 19.985 41.788 75.078 120.763 75.078 90.934 0 120.067-73.028 123.101-81.369l16.023-41.825v-233.018c-33.030 27.24-78.659 49.981-139.125 49.981zM621.63 92.771c-30.701 19.948-70.384 34.607-120.726 34.607-60.976 0-106.317-21.562-138.957-47.949v232.897l15.207 38.272c1.382 3.405 34.635 83.010 123.75 83.010 74.948 0 110.538-57.97 120.726-78.353v-262.486z" horiz-adv-x="668" />
<glyph unicode="&#xe60b;" d="M586.994 333.744v102.332c0 24.152-19.784 43.924-43.947 43.924h-499.122c-24.152 0-43.925-19.772-43.925-43.924v-424.139c0-24.152 19.773-43.925 43.925-43.925h499.122c24.163 0 43.936 19.772 43.936 43.925v101.024l0.011-1.388 229.692-107.668v438.485l-229.692-108.646z" horiz-adv-x="817" />
<glyph unicode="&#xe60c;" d="M419.847 480h-327.68c-50.695 0-92.167-41.472-92.167-92.167v-327.68c0-50.681 41.472-92.153 92.167-92.153h327.68c50.681 0 92.153 41.472 92.153 92.153v327.68c0 50.695-41.472 92.167-92.153 92.167zM417.927 289.97l-177.209-177.636c-5.113-5.113-15.197-9.294-22.414-9.294h-15.303c-7.225 0-17.309 4.195-22.4 9.308l-83.463 83.847c-5.099 5.113-5.085 13.483 0.028 18.596l32.832 32.832c5.113 5.113 13.476 5.113 18.582 0.014l53.319-53.205c5.127-5.113 13.476-5.099 18.582 0.014l146.141 146.489c5.099 5.113 13.476 5.127 18.596 0.042l32.668-32.448c5.127-5.098 5.156-13.447 0.043-18.56z" />
<glyph unicode="&#xe60d;" d="M8.096 165.303c-10.811 10.831-10.773 28.568 0.039 39.38l69.552 69.552c10.811 10.83 28.53 10.83 39.36 0.019l112.931-112.69c10.831-10.811 28.53-10.791 39.341 0.038l309.529 310.243c10.792 10.831 28.53 10.889 39.38 0.096l69.194-68.702c10.869-10.791 10.908-28.472 0.096-39.302l-375.341-376.221c-10.791-10.83-32.153-19.7-47.457-19.7h-32.433c-15.303 0-36.645 8.889-47.437 19.719l-176.754 177.565z" horiz-adv-x="696" />
<glyph unicode="&#xe60e;" d="M256-32c-141.376 0-256 114.616-256 256s114.624 256 256 256c141.392 0 256-114.616 256-256s-114.608-256-256-256zM256 432c-114.864 0-208-93.136-208-208 0-114.88 93.136-208 208-208 114.872 0 208 93.12 208 208 0 114.864-93.128 208-208 208zM344 112c-6.624 0-12.624 2.688-16.968 7.032l-71.032 71.024-71.032-71.024c-4.344-4.344-10.344-7.032-16.968-7.032-13.248 0-24 10.744-24 24 0 6.624 2.688 12.624 7.032 16.968l71.032 71.032-71.032 71.024c-4.344 4.344-7.032 10.344-7.032 16.976 0 13.256 10.752 24 24 24 6.624 0 12.624-2.688 16.968-7.032l71.032-71.032 71.032 71.032c4.344 4.344 10.344 7.032 16.968 7.032 13.264 0 24-10.744 24-24 0-6.632-2.688-12.632-7.032-16.976l-71.016-71.024 71.016-71.032c4.344-4.344 7.032-10.344 7.032-16.968 0-13.256-10.736-24-24-24z" />
<glyph unicode="&#xe60f;" d="M499.499 373.013c16.678 16.678 16.678 43.968 0 60.645l-33.84 33.833c-16.678 16.678-43.961 16.678-60.639 0l-118.697-118.69c-16.678-16.678-43.975-16.678-60.653 0l-118.683 118.69c-16.678 16.678-43.975 16.678-60.653-0.007l-33.826-33.819c-16.678-16.685-16.678-43.975 0-60.653l118.683-118.683c16.678-16.685 16.678-43.975 0-60.66l-118.683-118.683c-16.678-16.678-16.678-43.968 0-60.653l33.826-33.819c16.678-16.685 43.975-16.685 60.653-0.007l118.683 118.683c16.678 16.678 43.975 16.678 60.653 0l118.683-118.683c16.678-16.678 43.975-16.678 60.653 0l33.826 33.833c16.678 16.678 16.678 43.968 0 60.645l-118.683 118.683c-16.678 16.685-16.678 43.975 0 60.66l118.697 118.683z" />
<glyph unicode="&#xe610;" d="M302.663 40.665c-20.589 0-40.692 5.948-60.142 8.747-78.639-99.417-202.663-79.851-202.663-79.851 87.593 41.455 85.825 110.137 70.251 119.278-68.763 40.397-110.109 101.928-110.109 170.825 0 121.691 133.73 220.336 302.663 220.336 168.923 0 271.883-98.644 271.883-220.336s-102.96-218.999-271.883-218.999zM152.874 309.22c-29.73 0-53.826-24.096-53.826-53.826s24.096-53.826 53.826-53.826 53.826 24.096 53.826 53.826-24.096 53.826-53.826 53.826zM287.438 309.22c-29.73 0-53.826-24.096-53.826-53.826s24.096-53.826 53.826-53.826 53.826 24.096 53.826 53.826-24.096 53.826-53.826 53.826zM422.003 309.22c-29.73 0-53.826-24.096-53.826-53.826s24.096-53.826 53.826-53.826 53.826 24.096 53.826 53.826-24.096 53.826-53.826 53.826z" horiz-adv-x="575" />
<glyph unicode="&#xe611;" d="M607.568 126.195v172.692c0 46.669-35.524 85.022-81.006 89.522v-171.078c0-71.845-58.45-130.295-130.295-130.295h-200.583c-13.699-12.579-27.293-22.765-40.441-31.166 15.379-12.265 34.84-19.651 56.048-19.651h216.883c86.673-88.41 178.919-70.611 160.55-56.76-27.483 20.724-41.751 41.135-48.112 59.836 38.514 10.196 66.956 45.178 66.956 86.901zM486.245 217.341v172.692c0 49.668-40.28 89.967-89.977 89.967h-306.291c-49.697 0-89.977-40.299-89.977-89.967v-172.692c0-41.733 28.442-76.715 66.966-86.901-6.37-18.702-20.639-39.103-48.121-59.836-7.206-5.43 2.611-11.468 22.433-11.468 30.72 0 85.439 14.496 138.118 68.228h216.883c49.688 0 89.967 40.28 89.967 89.977z" horiz-adv-x="608" />
<glyph unicode="&#xe612;" d="M446.512 276.24c-4.328 15.656-9.472 30.488-17.344 44.288 8.968 12.056 40.424 57.144 18.168 79.408l-11.136 12.056c-19.032 19.024-67.504-10.688-79.312-18.384-13.96 7.912-28.888 14.208-44.72 18.488-2.536 15.096-13.56 67.904-44.872 67.904h-12.528c-26.888 0-42.328-54.6-45.768-68.288-15.624-4.36-30.416-10.664-44.168-18.552-10.872 8.072-57.44 40.248-80.168 17.528l-12.056-10.144c-19.816-19.816 13.104-72.040 19.12-81.184-7.616-13.576-16.024-28.128-20.224-43.48-13.136-2.096-71.504-12.912-71.504-45.176v-12.52c0-27.952 61.104-43.48 71.832-46.072 4.264-15.232 11.552-29.672 19.192-43.144-6.328-9.92-37.384-61.92-17.76-81.56l11.704-9.488c25.832-25.84 79.936 16.592 79.936 16.592l-2.44 2.672c14.312-8.472 29.848-15.168 46.224-19.776 2.672-11.008 18.232-69.408 46.080-69.408h12.528c36.52 0 45.584 68.176 45.584 68.176l-3.36 0.104c16.56 4.232 32.264 10.592 46.816 18.752 11.408-7.592 59.2-37.504 78.288-18.424l12.696 12.704c25.472 25.472-15.976 77.56-17.144 79.016 7.88 13.784 11.912 28.56 16.24 44.2 14.256 3.616 65.584 18.984 65.584 45.656v12.52c0 35.384-61.496 44.96-65.488 45.536zM260.664 127.952c-53.008 0-95.976 42.976-95.976 95.984s42.968 95.984 95.976 95.984 95.976-42.976 95.976-95.984c0-53.008-42.968-95.984-95.976-95.984z" />
<glyph unicode="&#xe613;" d="M487.184 110.096h-67.656v252.616c0 2.208-0.376 4.32-0.92 6.352l77.352 77.344c4.84 4.848 4.84 12.696 0 17.544-4.848 4.848-12.704 4.848-17.544 0l-77.352-77.344c-2.032 0.536-4.144 0.92-6.344 0.92h-252.624v67.656c0 13.696-11.112 24.816-24.816 24.816s-24.816-11.12-24.816-24.816v-67.656h-67.648c-13.704 0-24.816-11.12-24.816-24.816 0-13.712 11.112-24.816 24.816-24.816h67.656v-252.616c0-13.72 11.112-24.816 24.816-24.816h252.616v-67.656c0-13.712 11.12-24.816 24.824-24.816s24.816 11.096 24.816 24.816v67.656h67.656c13.704 0 24.816 11.096 24.816 24.816-0.016 13.696-11.128 24.816-24.832 24.816zM352.36 337.904l-210.264-210.264v210.264h210.264zM159.64 110.096l210.256 210.264v-210.264h-210.256z" />
<glyph unicode="&#xe614;" d="M545.341 385.341c-6.223 6.223-13.78 9.334-22.663 9.334h-96.011v31.998c0 14.664-5.217 27.223-15.661 37.666s-23.002 15.661-37.666 15.661h-192.005c-14.664 0-27.222-5.226-37.666-15.67-10.452-10.443-15.669-22.993-15.669-37.666v-31.998h-96.002c-8.892 0-16.441-3.103-22.663-9.334-6.223-6.214-9.334-13.772-9.334-22.663v-42.666c0-15.774 4.611-31.668 13.832-47.667s21.667-30.447 37.337-43.334c15.669-12.888 34.884-23.721 57.669-32.501 22.776-8.788 46.723-13.719 71.839-14.829 9.334-12.003 19.891-22.56 31.668-31.668 8.45-7.558 14.266-15.609 17.499-24.171 3.224-8.554 4.827-18.495 4.827-29.831 0-12.003-3.388-22.109-10.166-30.325-6.778-8.225-17.611-12.341-32.501-12.341-16.666 0-31.504-5.053-44.504-15.167s-19.5-22.837-19.5-38.168v-21.329c0-3.12 0.996-5.677 2.999-7.67 2.002-2.002 4.55-2.998 7.67-2.998h277.337c3.111 0 5.659 0.997 7.67 2.998 1.993 1.993 2.99 4.55 2.99 7.67v21.329c0 15.332-6.5 28.046-19.5 38.168-13 10.114-27.829 15.167-44.504 15.167-14.889 0-25.723 4.116-32.5 12.341-6.777 8.216-10.158 18.322-10.158 30.325 0 11.336 1.612 21.277 4.827 29.831 3.233 8.563 9.065 16.606 17.498 24.171 11.778 9.109 22.334 19.665 31.668 31.668 25.116 1.11 49.063 6.050 71.839 14.829 22.776 8.771 42.008 19.613 57.66 32.5 15.669 12.887 28.115 27.335 37.337 43.334s13.841 31.894 13.841 47.667v42.667c0 8.883-3.111 16.441-9.334 22.673zM74.171 266.008c-20.999 18.668-31.495 36.669-31.495 54.003v31.998h85.334c0-46.445 8.216-87.673 24.666-123.675-31.339 6.448-57.504 19.006-78.504 37.675zM512.009 320.002c0-17.334-10.495-35.343-31.495-54.003-21.009-18.668-47.173-31.226-78.512-37.666 16.45 36.002 24.666 77.221 24.666 123.675h85.333v-32.007z" horiz-adv-x="555" />
<glyph unicode="&#xe615;" d="M517.080 196.616c4.848 6.232 7.2 14.256 5.056 22.472l-63.688 241.424c-3.704 13.936-18.056 22.312-31.976 18.616l-407-107.304c-13.872-3.672-22.272-18.064-18.616-31.992l63.688-241.408c3.656-13.944 18.072-22.296 31.992-18.664l143.808 37.928v-80.808c0-45.208 74.928-68.88 148.992-68.88 74.024 0 149.040 23.664 149.040 68.88v122.576c0 14.728-8.056 27.096-21.296 37.16zM470.984 279.824l6.664-25.136-80.904-21.36-6.608 25.176 80.848 21.32zM424.032 438.856l12.64-47.848-126.392-33.368-12.632 47.88 126.384 33.336zM367.32 252.496l6.48-24.592c-29.912-1.336-59.016-6.536-82.416-15.48l-4.944 18.68 80.88 21.392zM85.664 151.312l-6.616 25.088 80.888 21.384 6.656-25.224-80.928-21.248zM182.744 203.768l80.832 21.368 6.112-23.016c-1.96-1.216-3.816-2.456-5.616-3.744l-74.744-19.72-6.584 25.112zM511.392 38.864c0-26.352-54.624-47.72-122.056-47.72-67.368 0-122.032 21.368-122.032 47.72v29.696c0 0.992 0.592 1.896 0.752 2.84 3.856-25 56.4-44.832 121.288-44.832 64.928 0 117.48 19.832 121.32 44.832 0.16-0.952 0.744-1.848 0.744-2.84v-29.696zM511.392 97.256c0-26.328-54.624-47.672-122.056-47.672-67.368 0-122.032 21.344-122.032 47.672v29.696c0 0.968 0.592 1.888 0.752 2.84 3.856-24.976 56.4-44.848 121.288-44.848 64.928 0 117.48 19.872 121.32 44.848 0.16-0.952 0.744-1.872 0.744-2.84v-29.696zM389.336 111.784c-67.368 0-122.032 21.344-122.032 47.672 0 26.336 54.664 47.672 122.032 47.672 67.44 0 122.056-21.336 122.056-47.672 0-26.328-54.616-47.672-122.056-47.672z" horiz-adv-x="539" />
<glyph unicode="&#xe616;" d="M134.476 20.493c-59.558 3.551-104.986 28.323-134.476 61.954l29.491 37.748c22.401-26.541 58.391-50.146 104.986-55.454v143.335c-60.16 16.514-122.102 36.58-122.102 109.126 0 60.75 51.325 103.806 122.102 109.126v53.673h35.99v-54.262c48.954-4.129 87.881-24.195 116.793-54.274l-29.49-35.978c-23.592 25.952-54.262 40.697-87.291 45.415v-128.59c60.75-17.117 125.641-39.529 125.641-116.793 0-53.082-34.209-108.536-125.641-115.024v-52.492h-35.99v52.493zM134.476 261.748v120.332c-41.876-2.949-71.379-27.721-71.379-61.93 0.013-32.439 31.284-46.607 71.379-58.403zM170.466 198.639v-134.476c56.044 5.886 74.918 39.517 74.918 67.84 0 38.325-33.631 54.25-74.918 66.635z" horiz-adv-x="296" />
<glyph unicode="&#xe617;" d="M567.855-32h-539.928c-15.425 0-27.927 12.493-27.927 27.928v176.873c0 3.519 0.661 6.908 1.862 10.017l74.258 194.942c3.882 10.761 14.177 18.46 26.279 18.46h139.637v-55.854h-120.394l-53.183-139.637h89.796c15.425 0 27.928-12.502 27.928-27.928v-27.928h223.418v27.928c0 15.425 12.502 27.928 27.928 27.928h89.805l-53.211 139.637h-120.376v55.854h139.637c12.102 0 22.397-7.698 26.28-18.45l74.259-194.951c1.201-3.109 1.862-6.488 1.862-10.017v-176.873c0-15.435-12.502-27.928-27.928-27.928zM390.982 275.2c0-7.708-3.128-14.69-8.183-19.744l-65.163-65.163c-5.055-5.055-12.036-8.183-19.745-8.183s-14.69 3.128-19.745 8.183l-65.163 65.163c-5.055 5.055-8.183 12.036-8.183 19.745 0 15.425 12.502 27.928 27.928 27.928 7.708 0 14.69-3.128 19.744-8.183l17.492-17.483v174.611c0 15.425 12.502 27.928 27.928 27.928s27.928-12.502 27.928-27.928v-174.611l17.492 17.483c5.055 5.055 12.036 8.183 19.745 8.183 15.425 0 27.928-12.502 27.928-27.928z" horiz-adv-x="596" />
<glyph unicode="&#xe618;" d="M712.348 1.392c0-18.443-14.96-33.392-33.391-33.392h-645.565c-18.432 0-33.392 14.948-33.392 33.392v211.478c0 4.185 0.857 8.159 2.26 11.843l-0.078 0.044 89.043 233.739 0.078-0.044c4.808 12.577 16.885 21.548 31.132 21.548h467.479c14.247 0 26.323-8.971 31.12-21.548l0.089 0.044 89.043-233.739-0.089-0.044c1.413-3.684 2.27-7.657 2.27-11.843v-211.478zM566.907 413.217h-421.465l-63.588-166.956h107.364c18.432 0 33.392-14.948 33.392-33.391v-33.392h267.13v33.392c0 18.443 14.959 33.392 33.392 33.392h107.364l-63.588 166.957z" horiz-adv-x="713" />
<glyph unicode="&#xe619;" d="M755.719 448.354l-232.347-198.925-144.346-118.091-143.263 117.188-233.398 199.828c-1.398-4.372-2.365-8.933-2.365-13.757v-420.92c0-2.743 0.326-5.381 0.841-7.956 3.699-21.325 22.292-37.721 44.626-37.721h666.803c20.075 0 37.027 13.296 42.986 31.446l0.241-0.241c1.556 4.582 2.606 9.396 2.606 14.473v420.92c0 4.824-0.967 9.385-2.386 13.757zM314.053 238.425l64.974-52.856 98.101 79.814 248.333 212.556c-4.078 1.209-8.313 2.060-12.76 2.060h-667.318c-4.446 0-8.703-0.851-12.781-2.070l248.49-212.672 32.959-26.833z" horiz-adv-x="758" />
<glyph unicode="&#xe61a;" d="M885.106 222.306c-0.014-0.373-0.056-0.747-0.083-1.106-0.014-0.193-0.028-0.373-0.056-0.553-0.014-0.276-0.069-0.553-0.111-0.816-0.042-0.305-0.069-0.623-0.125-0.94 0-0.027-0.014-0.069-0.014-0.111-1.092-7.012-4.315-13.567-9.253-18.629-9.28-11.272-19.431-21.824-29.624-32.196-55.154-55.998-118.44-105.938-187.729-142.173-44.298-23.151-91.582-41.822-140.665-50.812-53.951-9.875-107.971-9.39-161.645 2.296-92.855 20.205-176.982 70.367-250.558 130.334-34.174 27.853-67.74 58.307-95.98 92.55-12.35 14.964-12.35 32.708 0 47.7 9.28 11.257 19.431 21.823 29.638 32.183 55.14 56.012 118.426 105.952 187.728 142.186 44.27 23.137 91.569 41.822 140.651 50.797 53.951 9.875 107.971 9.377 161.645-2.282 92.855-20.206 176.996-70.367 250.558-130.347 34.146-27.826 67.726-58.307 95.966-92.551 4.938-5.034 8.159-11.617 9.253-18.615 0-0.042 0-0.097 0.014-0.125 0.056-0.304 0.083-0.623 0.139-0.94 0.028-0.263 0.083-0.54 0.097-0.802 0.014-0.208 0.042-0.374 0.056-0.567 0.028-0.374 0.056-0.747 0.083-1.12 0.014-0.553 0.056-1.107 0.056-1.673s-0.014-1.12-0.042-1.688zM442.574 396.882c-91.651 0-165.96-74.308-165.96-165.96 0-91.665 74.308-165.96 165.96-165.96s165.96 74.294 165.96 165.96c0 91.651-74.308 165.96-165.96 165.96zM442.574 147.942c-45.832 0-82.98 37.147-82.98 82.98s37.147 82.98 82.98 82.98 82.98-37.148 82.98-82.98-37.147-82.98-82.98-82.98z" horiz-adv-x="885" />
<glyph unicode="&#xe61b;" d="M239.582 479.848v-82.393c0 0-60.729 6.054-75.94-17.225-8.309-12.715-3.375-49.966-4.111-76.715h80.546c-6.814-31.269-11.684-52.484-16.697-79.546h-64.304v-255.976h-111.59c0.032 78.914-0.016 170.976 0 254.976h-47.486v80.554h46.967c2.407 58.89 3.311 117.236 32.564 146.945 32.883 33.387 64.232 29.381 160.052 29.381z" horiz-adv-x="240" />
<glyph unicode="&#xe61c;" d="M472.264-32h-432.841c-21.771 0-39.423 16.020-39.423 37.815v434.729c0 21.795 17.652 39.456 39.423 39.456h432.841c21.771 0 39.423-17.66 39.423-39.456v-434.737c0-21.787-17.652-37.807-39.423-37.807zM218.024 381.197c-23.355 0-46.006-3.735-61.274-11.181-15.276-7.471-26.29-20.668-31.985-32.521-5.687-11.87-8.518-26.306-8.518-50.397v-22.867h-38.295v-59.947h38.287v-199.108h81.822v199.101h51.029l14.149 59.947h-65.169v21.516c0 14.549 2.639 24.41 7.927 29.521 5.295 5.135 15.788 8.19 27.97 8.19 12.374 0 22.307-5.783 34.8-13.069l14.909 56.387c-22.955 6.478-41.695 14.429-65.649 14.429z" />
<glyph unicode="&#xe61d;" d="M416 384h-96v96l96-96zM448 352v-384h-448v512h288v-128h160zM64 352h192v32h-192v-32zM384 96h-320v-32h320v32zM384 192h-320v-32h320v32zM384 288h-320v-32h320v32z" horiz-adv-x="448" />
<glyph unicode="&#xe61e;" d="M392.312 480h-276.12l-116.192-103.88v-407.304h210.648v36.528h-169.504v330.952h119.2v107.176h190.824v-184.8h41.144zM380.424 182.632l87.464 87.504 63.544-63.544-87.488-87.488 87.488-87.584-63.544-63.52-87.464 87.488-87.624-87.488-63.528 63.52 87.536 87.584-87.536 87.488 63.528 63.544z" horiz-adv-x="532" />
<glyph unicode="&#xe61f;" d="M261.406 10.654h-218.752v319.409h107.19v107.283h178.572v-105.896h42.654v148.55h-263.88v-0.32l-107.19-106.963v-404.717h261.406v0.568zM394.651 288.796h-90.591v-114.832h-114.825v-90.576h114.825v-114.818h90.591v114.818h114.811v90.584h-114.811z" horiz-adv-x="510" />
<glyph unicode="&#xe620;" d="M440-32h-416c-13.256 0-24 10.744-24 24v416c0 13.256 10.744 24 24 24h40v-24c0-26.512 21.488-48 48-48s48 21.488 48 48v24h24v-24c0-26.512 21.488-48 48-48s48 21.488 48 48v24h24v-24c0-26.512 21.488-48 48-48s48 21.488 48 48v24h40c13.256 0 24-10.744 24-24v-416c0-13.256-10.744-24-24-24zM376 296h-288c-13.256 0-24-10.744-24-24s10.744-24 24-24h288c13.256 0 24 10.744 24 24s-10.744 24-24 24zM376 192h-288c-13.256 0-24-10.744-24-24s10.744-24 24-24h288c13.256 0 24 10.744 24 24s-10.744 24-24 24zM380 88h-296c-11.048 0-20-8.952-20-20s8.952-20 20-20h296c11.048 0 20 8.952 20 20s-8.952 20-20 20zM352 384c-13.256 0-24 10.744-24 24v48c0 13.256 10.744 24 24 24s24-10.744 24-24v-48c0-13.256-10.744-24-24-24zM232 384c-13.256 0-24 10.744-24 24v48c0 13.256 10.744 24 24 24s24-10.744 24-24v-48c0-13.256-10.744-24-24-24zM112 384c-13.256 0-24 10.744-24 24v48c0 13.256 10.744 24 24 24s24-10.744 24-24v-48c0-13.256-10.744-24-24-24z" horiz-adv-x="464" />
<glyph unicode="&#xe621;" d="M147.055 480c0.583 0 1.231-0.384 1.964-1.174 13.93-14.991 62.709-43.905 79.935-122.211 0 0 42.603 31.931 54.193 31.931 2.284 0 3.358-1.245 2.668-4.226-8.95-38.349 11.604-68.871 3.351-118.347-3.82-22.945 39.992-48.508 36.164-135.493 0-89.738-72.749-162.487-162.48-162.487-89.746 0-162.494 72.749-162.494 162.487 0 0-9.918 95.686 73.879 225.012 9.498 14.059 13.93 20.298 26.496 32.166 0.093 0.092 0.163 0.135 0.235 0.135 0.797 0 0.562-5.087 0.42-10.16-0.15-5.087-0.207-10.16 0.947-10.16 0.014 0 0.043 0.007 0.057 0.007 0 0-16.343-79.899 5.457-84.751 1.487-0.32 2.895-0.484 4.248-0.484 23.82 0 29.278 49.434 30.416 98.867 1.138 49.454-2.028 98.896 4.547 98.888zM224.35 271.879l-37.232-27.897-3.38 15.389c-23.372-38.526-59.145-42.169-71.653-42.169-6.090 0-12.266 0.69-18.342 2.035-2.903 0.647-5.734 1.452-8.474 2.419-20.455-53.503-20.213-80.959-20.028-86.174l0.384-3.294-0.207-1.707c0-53.724 43.713-97.437 97.444-97.437 53.724 0 97.43 43.72 97.43 97.437v1.43l0.071 1.43c1.686 38.434-8.9 52.108-19.138 72.322-8.893 17.538-19.836 39.117-16.876 66.217v0z" horiz-adv-x="326" />
<glyph unicode="&#xe622;" d="M410.181 403.995c0 0-75.184-3.092-115.214-7.998-22.664-2.785-8.469 41.508-8.469 50.284 0 40.266-206.965-18.358-206.965-18.358v-237.291c0 0 15.716-6.834 37.767 1.521 55.94 21.215 152.674 51.62 137.079 1.5-13.167-42.322 151.225-8.269 151.225-8.269s-11.81 88.216 2.913 139.464 1.664 79.147 1.664 79.147zM50.484 454.757c0 13.932-11.311 25.243-25.242 25.243-13.945 0-25.242-11.311-25.242-25.243v-486.757h50.484v486.757z" horiz-adv-x="416" />
<glyph unicode="&#xe623;" d="M341.376 480l-291.741-270.406 99.939 0.121-149.573-241.715 319.728 298.4-99.341-0.106z" horiz-adv-x="342" />
<glyph unicode="&#xe624;" d="M256 480c-141.376 0-256-114.61-256-256s114.624-256 256-256c141.39 0 256 114.61 256 256s-114.61 256-256 256zM276.167 125.511v71.267c-35.776 0-58.361-1.735-73.209-3.498-90.816-10.809-114.567-67.798-114.567-67.798 0 138.844 187.719 153.252 187.719 153.252v65.906l162.795-109.568-162.738-109.561z" />
<glyph unicode="&#xe625;" d="M508.337 330.661l-57.43 149.339-450.906-173.39 130.154-338.457v-0.162h483.093v362.669h-104.91zM465.159 330.661h-290.329l252.929 97.26 37.401-97.26zM52.080 283.454l78.074 30.031v-233.044l-78.073 203.012zM170.459 8.298v282.057h402.481v-282.057h-402.481zM493.529 181.313l-32.23-10.726-27.927 52.642-90.248-130.272-48.332 31.156-75.756-82.308h317.465zM297.188 206.88c0-21.060-17.073-38.134-38.134-38.134s-38.133 17.073-38.133 38.134c0 21.060 17.073 38.133 38.133 38.133s38.134-17.073 38.134-38.133z" horiz-adv-x="613" />
<glyph unicode="&#xe626;" d="M505.669 350.597v129.403h-505.669v-382.598h127.477v-129.402h505.669v382.598h-127.477zM63.268 160.68v256.062h379.133v-66.135h-314.924v-189.927h-64.209zM190.736 287.329h379.142v-256.053h-379.142v256.053z" horiz-adv-x="633" />
<glyph unicode="&#xe627;" d="M502.599 351.446v-90.84h-37.229v90.84h-93.074v37.136h93.074v90.831h37.23v-90.831h93.074v-37.136h-93.074zM245.175 443.44c33.032-18.298 52.392-47.979 52.392-86.791 0-32.623-20.141-58.32-46.118-78.257-25.344-19.443-30.156-27.606-30.156-44.136 0-14.1 27.159-38.133 41.353-47.989 41.502-28.834 53.769-55.603 53.769-100.26 0-55.742-53.769-117.999-153.227-117.999-87.257-0.010-163.186 41.735-163.186 97.458 0 56.599 69.48 111.214 156.718 111.214 9.503 0 18.215 0.373 27.233 0.373-11.941 11.411-21.379 25.605-21.379 42.851 0 10.22 3.322 20.495 7.958 29.253-4.747-0.335-9.578 0.428-14.566 0.428-71.648 0-119.656 51.786-119.656 113.829-0.010 60.703 66.287 116.584 136.726 116.584h157.109l-35.154-36.56h-49.813zM173.332 162.236c-60.293 0.623-114.323-36.113-114.323-80.257 0-45.029 43.558-77.95 103.852-77.95 84.762 0 114.323 30.622 114.323 75.65 0 5.426-0.688 10.74-1.926 15.925-6.636 25.474-30.1 38.104-62.844 60.452-11.904 3.807-25.009 6.022-39.082 6.18zM241.080 355.951c-6.999 52.186-47.207 94.088-87.695 95.27-40.469 1.173-67.618-38.765-60.61-90.971 6.981-52.196 45.448-95.503 85.926-96.676 40.45-1.2 69.358 40.152 62.378 92.376z" horiz-adv-x="596" />
<glyph unicode="&#xe628;" d="M0 480h170.667v-170.667h-170.667v170.667zM0 138.666h170.667v-170.666h-170.667v170.667zM341.334 480h512v-170.667h-512v170.667zM341.334 138.666h512v-170.666h-512v170.667z" horiz-adv-x="854" />
<glyph unicode="&#xe629;" d="M0 480h170.667v-170.667h-170.667v170.667zM341.334 480h170.666v-170.667h-170.667v170.667zM682.667 480h170.667v-170.667h-170.667v170.667zM0 138.666h170.667v-170.666h-170.667v170.667zM341.334 138.666h170.666v-170.666h-170.667v170.667zM682.667 138.666h170.667v-170.666h-170.667v170.667z" horiz-adv-x="854" />
<glyph unicode="&#xe62a;" d="M488-32h-464c-13.256 0-24 10.744-24 24v400c0 13.256 10.744 24 24 24h48v-24c0-30.928 25.080-56 56-56 30.928 0 56 25.072 56 56v24h144v-24c0-30.928 25.080-56 56-56 30.928 0 56 25.072 56 56v24h48c13.256 0 24-10.744 24-24v-400c0-13.256-10.744-24-24-24zM464 288h-416v-272h416v272zM176 176c6.624 0 12.624-2.688 16.968-7.032l39.032-39.024 95.032 95.024c4.336 4.344 10.344 7.032 16.968 7.032 13.256 0 24-10.744 24-24 0-6.624-2.688-12.624-7.032-16.968l-112-112c-4.344-4.344-10.344-7.032-16.968-7.032s-12.624 2.688-16.968 7.032l-56 56c-4.344 4.344-7.032 10.344-7.032 16.968 0 13.256 10.752 24 24 24zM384 368c-13.248 0-24 10.744-24 24v64c0 13.256 10.752 24 24 24 13.256 0 24-10.744 24-24v-64c0-13.256-10.744-24-24-24zM128 368c-13.248 0-24 10.744-24 24v64c0 13.256 10.752 24 24 24 13.256 0 24-10.744 24-24v-64c0-13.256-10.744-24-24-24z" />
<glyph unicode="&#xe62b;" d="M488-32h-464c-13.256 0-24 10.744-24 24v400c0 13.256 10.744 24 24 24h48v-24c0-30.928 25.072-56 56-56s56 25.072 56 56v24h144v-24c0-30.928 25.072-56 56-56s56 25.072 56 56v24h48c13.256 0 24-10.744 24-24v-400c0-13.256-10.744-24-24-24zM464 288h-416v-272h416v272zM200 176h32v32c0 13.256 10.744 24 24 24s24-10.744 24-24v-32h32c13.256 0 24-10.744 24-24s-10.744-24-24-24h-32v-32c0-13.256-10.744-24-24-24s-24 10.744-24 24v32h-32c-13.256 0-24 10.744-24 24s10.744 24 24 24zM201.008 232c0.008 0 0.016 0 0.032 0h-0.064c0.008 0 0.016 0 0.032 0zM384 368c-13.256 0-24 10.744-24 24v64c0 13.256 10.744 24 24 24s24-10.744 24-24v-64c0-13.256-10.744-24-24-24zM128 368c-13.256 0-24 10.744-24 24v64c0 13.256 10.744 24 24 24s24-10.744 24-24v-64c0-13.256-10.744-24-24-24z" />
<glyph unicode="&#xe62c;" d="M821.888 183.576h-538.944c-22.312 0-40.424 18.096-40.424 40.424s18.112 40.424 40.424 40.424h538.944c22.344 0 40.424-18.096 40.424-40.424s-18.080-40.424-40.424-40.424zM821.888 399.16h-538.944c-22.312 0-40.424 18.096-40.424 40.424s18.112 40.416 40.424 40.416h538.944c22.344 0 40.424-18.096 40.424-40.424s-18.080-40.416-40.424-40.416zM121.264-32v0h-80.84c-22.32 0-40.424 18.096-40.424 40.424s18.104 40.424 40.424 40.424h80.84c22.336 0 40.424-18.096 40.424-40.424s-18.088-40.424-40.424-40.424zM121.264 183.576v0h-80.84c-22.32 0-40.424 18.096-40.424 40.424s18.104 40.424 40.424 40.424h80.848c22.336 0 40.424-18.096 40.424-40.424s-18.096-40.424-40.432-40.424zM121.264 399.16v0h-80.84c-22.32 0-40.424 18.088-40.424 40.416s18.104 40.424 40.424 40.424h80.84c22.336 0 40.424-18.096 40.424-40.424s-18.088-40.416-40.424-40.416zM282.944-32c-22.312 0-40.424 18.096-40.424 40.424s18.112 40.424 40.424 40.424h538.944c22.344 0 40.424-18.096 40.424-40.424s-18.080-40.424-40.424-40.424h-538.944z" horiz-adv-x="863" />
<glyph unicode="&#xe62d;" d="M496 88c0-26.512-39.392-48-88-48-48.592 0-88 21.488-88 48 0 26.504 39.408 48 88 48 14.424 0 28-1.928 40-5.28v199.616l-272-59.32v-255.016c0-26.512-39.392-48-88-48-48.592 0-88 21.488-88 48 0 26.504 39.408 48 88 48 14.424 0 28-1.928 40-5.28v325.28c0 18.544 24 24 24 24l320 72c13.264 0 24-10.744 24-24v-368z" horiz-adv-x="496" />
<glyph unicode="&#xe62e;" d="M470.728 41.032c-8.408 8.392-22.040 8.392-30.448 0-40.296-40.152-105.848-40.152-146.128 0l-220.888 220.248c-40.28 40.184-40.28 105.56 0 145.712 40.296 40.184 105.848 40.184 146.136 0 0.040-0.040 0.096-0.064 0.128-0.104l183.056-182.544c22.024-21.976 22.024-57.704 0-79.648-22.008-21.968-57.832-21.968-79.872 0l-144.672 144.248c-2.816 2.76-10.864 12.784-10.872 22.064-0.024 3.056 0.712 7.896 7.096 14.256 8.416 8.384 8.416 21.984 0 30.392-8.416 8.392-22.032 8.392-30.456 0-13.088-13.072-19.912-28.712-19.728-45.288 0.344-28.904 21.624-50.048 23.704-52.008l144.472-144.040c19.4-19.344 44.904-29.008 70.384-29.008 25.504 0 51 9.664 70.424 29.008 38.808 38.704 38.808 101.696 0 140.376l-183.192 182.656c-0.008 0.016-0.008 0.016-0.016 0.024-0.016 0.016-0.040 0.040-0.056 0.048l-4.264 4.256c-1.144 1.128-2.384 2.080-3.68 2.896-57.456 49.464-144.528 47.16-199.040-7.2-57.080-56.928-57.080-149.544 0-206.464l220.88-220.24c28.544-28.456 66.008-42.672 103.52-42.672 37.488 0 74.968 14.216 103.512 42.68 8.424 8.384 8.424 21.968 0 30.352z" horiz-adv-x="477" />
<glyph unicode="&#xe62f;" d="M436.192 313.119l-90.219 90.047 67.659 67.509c12.466 12.433 32.665 12.433 45.12 0l45.109-45.024c12.455-12.412 12.455-32.569 0-45.002l-67.669-67.531zM142.987 20.49l-90.229 90.026 270.666 270.132 90.197-90.048-270.634-270.111zM0-32l30.026 120.020 90.229-90.048-120.255-29.973z" horiz-adv-x="513" />
<glyph unicode="&#xe630;" d="M462.4 157.872h-187.36c-0.256 0-0.472 0-0.76 0-29.608-0.456-57.68 13.728-74.784 37.952-13.488 19.056-18.832 42.688-14.856 65.696 1.44 8.416 1.136 17.32-1.28 26.136-3.184 11.584-9.528 21.472-17.776 28.848l0.384 0.144-18.52 67.648c-2.4 8.752-11.44 13.888-20.168 11.504l-11.456-3.144c-4.192-1.144-7.776-3.928-9.92-7.704-2.168-3.784-2.744-8.264-1.592-12.48l11.712-42.664c-0.848-0.176-1.688-0.384-2.528-0.616-30.040-8.248-47.496-40.16-38.944-71.296 3.072-11.216 9.12-20.816 16.968-28.096 10.8-44.64 37.96-99.84 92.88-138.648 18.976-13.4 35.344-30.568 47.776-50.216 0.032-0.064 0.064-0.136 0.112-0.192l3.096-72.744h288.448v115.984c0.008 38.296-26.768 73.888-61.432 73.888zM458.64 246.536c0-48.641-40.259-88.072-89.92-88.072s-89.92 39.431-89.92 88.072c0 48.641 40.259 88.072 89.92 88.072s89.92-39.431 89.92-88.072zM178 386.592c0-5.544 4.48-10.016 10-10.016h332.528c5.536 0 10 4.488 10 10.016v7.088c0 5.544-4.496 10.008-10 10.008h-332.512c-5.536 0-10-4.488-10-10.008l-0.016-7.088zM11 479.984c-6.088 0-11-4.936-11-11.024v-6.072c0-5.528 4.472-10.016 10-10.016h510.688c5.544 0 10.032 4.488 10.032 10.008v7.088c0 5.528-4.488 10.032-10.032 10.032l-509.688-0.016z" horiz-adv-x="531" />
<glyph unicode="&#xe631;" d="M162.682 147.572c-4.174-16.627-8.373-34.060-12.739-51.085-4.286-16.794-8.062-33.844-14.312-49.281-10.368-25.575-23.523-50.279-40.78-70.282-11.462-13.306-9.028-7.982-12.476-7.272-2.634 0.543-2.865 3.129-3.4 6.865-2.809 20.331-0.886 43.813 0.159 66.642 1.198 26.029 6.657 47.661 11.742 69.284 9.666 41.163 18.877 81.536 28.639 122.98 0.654 2.77 2.403 7.311 1.796 8.884-4.43 11.518-7.279 21.855-8.541 33.932-1.469 13.881-0.343 26.835 2.778 38.777 5.499 21.104 18.207 39.822 37.787 46.655 12.444 4.334 26.237 2.362 34.61-2.634 8.637-5.149 14.543-13.298 17.305-24.84 2.946-12.292 0.782-26.971-1.589-37.755-5.332-24.297-12.333-42.568-18.694-66.035-3.153-11.638-6.721-23.595-3.775-36.151 2.698-11.526 8.716-19.476 16.898-25.447 8.493-6.178 18.535-9.579 32.431-9.091 24.489 0.854 41.531 16.515 52.913 31.305 18.191 23.627 29.23 55.539 33.413 93.51 1.357 12.228 2.339 26.309 1.389 40.182-1.732 25.622-9.762 46.232-22.462 62.204-12.116 15.206-29.262 27.323-50.119 34.123-20.721 6.753-49.377 9.003-74.823 4.637-46.24-7.91-78.855-34.195-98.059-70.482-10.057-19.013-16.715-40.852-16.715-68.055 0-20.961 5.172-37.213 13.529-49.872 2.65-4.023 6.546-7.335 9.147-11.917 3.68-6.497-0.575-16.196-2.386-23.235-2.195-8.485-2.434-20.187-12.348-20.394-4.087-0.080-9.243 2.93-12.724 4.837-26.038 14.399-41.858 40.589-48.331 74.529-3.943 20.625-3.943 44.692 0 64.623 3.792 19.285 10.864 37.069 18.694 51.508 16.244 29.981 40.054 53.959 69.028 71.080 22.262 13.162 47.398 22.413 77.969 26.851 10.145 1.485 20.642 2.099 32.024 2.634 33.285 1.572 63.545-5.971 86.318-16.148 24.058-10.768 43.246-25.079 59.474-42.815 16.714-18.255 28.887-39.511 36.606-66.043 4.023-13.801 7.934-28.591 7.934-45.642 0-17.113-3.616-32.183-6.146-47.254-9.466-56.433-36.31-102.601-76.579-128.854-9.778-6.377-21.591-12.245-35.017-16.147-13.314-3.887-28.496-6.793-44.755-5.659-15.797 1.094-28.703 5.38-39.583 11.51-10.752 6.091-19.82 13.546-26.229 24.84z" horiz-adv-x="391" />
<glyph unicode="&#xe632;" d="M256 480c-141.376 0-256-114.624-256-256 0-105.376 63.688-195.872 154.64-235.168-0.656 17.84-0.016 39.128 4.504 58.424 4.968 20.832 33.096 140 33.096 140s-8.216 16.424-8.216 40.672c0 38.032 22.096 66.504 49.544 66.504 23.376 0 34.672-17.592 34.672-38.608 0-23.488-14.984-58.608-22.72-91.144-6.408-27.248 13.72-49.504 40.592-49.504 48.64 0 81.408 62.512 81.408 136.624 0 56.28-37.872 98.456-106.872 98.456-77.904 0-126.512-58.128-126.512-123.064 0-22.376 6.624-38.184 16.984-50.392 4.744-5.616 5.392-7.872 3.656-14.344-1.248-4.704-4.016-16.080-5.2-20.624-1.704-6.504-7-8.784-12.872-6.392-35.872 14.624-52.624 53.936-52.624 98.12 0 73 61.56 160.52 183.624 160.52 98.128 0 162.672-71 162.672-147.16 0-100.84-56.048-176.112-138.624-176.112-27.752 0-53.864 15-62.752 32 0 0-14.968-59.144-18.096-70.608-5.392-19.512-15.784-39.016-25.408-54.376 22.36-6.384 46.016-9.824 70.504-9.824 141.376 0 256 114.624 256 256s-114.624 256-256 256z" />
<glyph unicode="&#xe633;" d="M328.421 296.407v183.593h-144.842v-183.593h-183.579v-144.828h183.579v-183.579h144.842v183.579h183.572v144.828z" />
<glyph unicode="&#xe634;" d="M0 400.552c0 14.627 11.855 26.483 26.483 26.483h132.414v26.483c0 14.627 11.856 26.483 26.483 26.483h52.965c14.627 0 26.483-11.856 26.483-26.483v-26.483h132.414c14.627 0 26.483-11.856 26.483-26.483v-26.483h-423.724v26.483zM397.241 321.103v-326.62c0-14.627-11.856-26.483-26.483-26.483h-317.793c-14.627 0-26.483 11.856-26.483 26.483v353.103h370.759v-26.483zM132.414 268.138c0 14.627-11.856 26.483-26.483 26.483s-26.483-11.856-26.483-26.483v-220.69c0-14.627 11.856-26.483 26.483-26.483s26.483 11.856 26.483 26.483v220.69zM238.345 268.138c0 14.627-11.856 26.483-26.483 26.483s-26.483-11.856-26.483-26.483v-220.69c0-14.627 11.856-26.483 26.483-26.483s26.483 11.856 26.483 26.483v220.69zM344.276 268.138c0 14.627-11.856 26.483-26.483 26.483s-26.483-11.856-26.483-26.483v-220.69c0-14.627 11.856-26.483 26.483-26.483s26.483 11.856 26.483 26.483v220.69z" horiz-adv-x="424" />
<glyph unicode="&#xe635;" d="M497.952 49.936c8.672-8.688 14.048-20.68 14.048-33.936 0-26.512-21.488-48-48-48-13.248 0-25.248 5.368-33.936 14.056l-140.672 140.68c-28.576-16.88-61.8-26.736-97.392-26.736-106.032 0-192 85.96-192 192s85.968 192 192 192c106.048 0 192-85.96 192-192 0-35.592-9.856-68.816-26.736-97.384l140.688-140.68zM192 432c-79.528 0-144-64.48-144-144 0-79.528 64.472-144 144-144s144 64.472 144 144c0 79.52-64.472 144-144 144z" />
<glyph unicode="&#xe636;" d="M511.801 53.3h-426.501v255.834h56.279c29.249 32.395 67.728 59.729 114.88 80.779 3.554 1.593 7.099 3.043 10.644 4.521h-267.103v-426.425h597.101v213.914l-85.3-57.435v-71.188zM682.543 308.006l-255.541 171.994v-103.45c0 0-294.683-22.623-294.683-240.575 0 0 37.276 89.452 179.851 106.407 23.315 2.777 58.753 5.497 114.918 5.497v-111.876l255.455 172.003z" horiz-adv-x="683" />
<glyph unicode="&#xe637;" d="M255.592 422.848c0 31.52-25.656 57.152-57.168 57.152-31.504 0-57.16-25.632-57.16-57.152h-141.264v-454.848h396.84v454.848h-141.248zM198.424 448.312c14.048 0 25.472-11.432 25.472-25.464h-50.952c0.008 14.032 11.448 25.464 25.48 25.464zM349.344 77.728l-62.232-61.288v61.32l62.232-0.032zM255.424 109.432v-93.936h-207.912v359.816h75.608v-53.344h150.592v53.344h75.624v-265.88h-93.912z" horiz-adv-x="397" />
<glyph unicode="&#xe638;" d="M256-32c-141.384 0-256 114.616-256 256s114.616 256 256 256 256-114.616 256-256c0-141.384-114.616-256-256-256zM256 432c-114.872 0-208-93.128-208-208s93.128-208 208-208 208 93.128 208 208-93.128 208-208 208zM360 200h-104c-13.256 0-24 10.744-24 24v144c0 13.256 10.744 24 24 24s24-10.744 24-24v-120h80c13.256 0 24-10.744 24-24s-10.744-24-24-24z" />
<glyph unicode="&#xe639;" d="M319.858-4.104c-21.755-10.258-41.464-17.502-59.109-21.675-17.661-4.158-36.746-6.221-57.246-6.221-23.298 0-37.026 2.935-54.919 8.811-17.893 5.933-33.148 14.416-45.773 25.281-12.665 10.969-21.412 22.642-26.313 34.932-4.869 12.313-7.308 30.174-7.308 53.632v179.526h-69.191v72.501c20.004 6.516 43.191 15.903 57.422 28.087 14.335 12.225 25.769 26.864 34.388 43.99 8.651 17.070 14.6 38.801 17.846 65.242h72.461v-118.442h117.746v-91.377h-117.754v-131.29c0-29.702-0.408-46.82 2.734-55.199 3.11-8.395 10.913-17.102 19.412-22.139 11.274-6.772 24.145-10.178 38.649-10.178 25.8 0 51.442 8.451 76.954 25.273v-80.752z" horiz-adv-x="320" />
<glyph unicode="&#xe63a;" d="M429.058 479.971c50.13 0.887 76.811-17.377 102.299-40.608 21.615 1.853 49.736 13.947 66.304 22.354 5.371 2.947 10.724 5.885 16.096 8.822-9.452-25.567-22.285-45.566-41.988-60.755-4.366-3.371-8.723-7.925-14.203-10.073v-0.306c28.071 0.276 51.244 12.942 73.243 19.812v-0.315c-11.562-18.373-27.203-37.001-43.89-50.357-6.742-5.352-13.473-10.704-20.206-16.056 0.365-29.736-0.433-58.113-5.992-83.099-32.319-145.264-117.962-243.887-253.526-286.131-48.671-15.169-127.344-21.398-183.122-7.55-27.657 6.86-52.643 14.607-76.091 24.848-13.020 5.697-25.084 11.867-36.627 18.904-3.785 2.307-7.569 4.613-11.354 6.919 12.567-0.375 27.302-3.844 41.347-1.567 12.724 2.060 25.212 1.508 36.941 4.091 29.284 6.416 55.265 14.923 77.668 28.022 10.862 6.348 27.322 13.809 35.049 22.975-14.538-0.257-27.726 3.105-38.519 6.929-41.87 14.784-66.235 41.959-82.084 82.774 12.685-1.38 49.223-4.692 57.768 2.523-15.968 0.877-31.323 10.123-42.303 17.002-33.669 21.073-61.139 56.418-60.942 110.786 4.425-2.089 8.851-4.189 13.267-6.288 8.466-3.568 17.052-5.48 27.154-7.55 4.268-0.887 12.793-3.4 17.683-1.577h-0.641c-6.505 7.579-17.12 12.636-23.675 20.757-21.596 26.868-41.85 68.197-29.027 117.429 3.233 12.478 8.388 23.507 13.878 33.679 0.207-0.108 0.424-0.217 0.631-0.315 2.504-5.273 8.121-9.137 11.68-13.533 11.039-13.68 24.651-25.981 38.519-36.834 47.262-36.962 89.811-59.67 158.175-76.486 17.337-4.277 37.385-7.54 58.103-7.569-5.815 16.953-3.952 44.354 0.621 60.755 11.522 41.239 36.538 70.946 73.262 86.874 8.762 3.805 18.5 6.584 28.721 8.812 5.253 0.64 10.517 1.272 15.78 1.902z" horiz-adv-x="631" />
<glyph unicode="&#xe63b;" d="M507.808 207.4c-11.832 0-21.424-9.608-21.424-21.432v-175.12h-443.536v175.12c0 11.824-9.592 21.432-21.424 21.432s-21.424-9.6-21.424-21.424v-177.52c0-22.312 18.152-40.456 40.448-40.456h448.344c22.296 0 40.448 18.144 40.448 40.448v177.52c-0.008 11.832-9.6 21.432-21.432 21.432zM207.608 128.808c0-8.704 7.048-15.736 15.736-15.736h82.544c8.688 0 15.736 7.032 15.736 15.736v200.504h61.088c0 2.368-0.72 4.752-2.144 6.576l-110.792 141.384c-2.84 3.64-7.472 3.64-10.312 0l-110.8-141.384c-1.424-1.824-2.144-4.208-2.144-6.576h61.088v-200.504z" horiz-adv-x="529" />
<glyph unicode="&#xe63c;" d="M371.603 21.457v139.631c-7.945 2.098-16.144 3.995-24.69 5.527 19.884 21.27 34.933 54.561 50.411 93.99 8.957 22.857 7.425 42.321 7.425 70.058 0 20.494 3.867 53.366-1.231 71.425-17.129 61.055-60.471 77.911-111.238 77.911-50.803 0-94.182-16.919-111.302-78.093-5.044-18.032-1.177-50.813-1.177-71.262 0-27.791-1.514-47.338 7.479-70.221 15.606-39.63 30.446-72.849 50.256-94.055-77.135-14.183-129.261-54.387-164.404-70.085-72.775-32.425-73.131-67.95-73.131-67.95v-60.335l585.943 0.073v53.366l-214.341 0.018zM421.038 151.503h235.629v-80.628h-235.629v80.629z" horiz-adv-x="657" />
<glyph unicode="&#xe63d;" d="M473.841 21.579h-102.107v139.455c-7.993 2.14-16.221 4.046-24.811 5.57 19.866 21.303 34.925 54.567 50.404 93.996 8.971 22.847 7.426 42.313 7.426 70.045 0 20.501 3.87 53.365-1.221 71.442-17.159 61.055-60.469 77.911-111.254 77.911-50.804 0-94.192-16.925-111.312-78.097-5.042-18-1.183-50.804-1.183-71.247 0-27.791-1.486-47.335 7.505-70.221 15.596-39.625 30.42-72.869 50.238-94.055-77.13-14.159-129.233-54.391-164.403-70.065-72.762-32.443-73.124-67.964-73.124-67.964v-60.352l473.841 0.303v53.276zM705.318 150.94h-102.097v102.107h-80.559v-102.107h-102.107v-80.54h102.107v-102.087h80.559v102.087h102.097z" horiz-adv-x="706" />
<glyph unicode="&#xe63e;" d="M726.33-9.414c0-0.022 0.023-0.022 0.023-0.057 0-12.447-10.128-22.529-22.62-22.529h-168.5c12.629 2.785 22.086 13.969 22.086 27.394 0 0.022 0 0.046 0 0.068v0c0 0 0 102.38-75.043 139.606-32.077 15.89-34.214 12.878-50.149 16.641l0.443 44.341c0 0-17.516 13.356-22.961 55.242-10.969-3.16-14.584 12.821-15.231 22.995-0.603 9.832-6.354 40.545 7.013 37.771-2.728 20.506-4.706 38.999-3.728 48.797 3.353 34.384 36.589 70.326 87.784 72.94 60.209-2.615 84.057-38.533 87.399-72.917 0.977-9.787-1.182-28.292-3.91-48.775 13.39 2.739 7.57-27.928 6.899-37.748-0.58-10.185-4.285-26.121-15.231-22.972-5.456-41.875-22.972-55.128-22.972-55.128l0.398-44.284c0 0 11.105-6.308 57.879-25.62 46.774-19.334 32.1-4.877 70.224-23.767 60.209-29.872 60.209-112.007 60.209-112.007h-0.011zM387.001 142.080c51.434-21.255 35.293-5.353 77.191-26.132 66.199-32.827 66.199-123.113 66.199-123.113h-0.023c0-0.022 0-0.034 0-0.057 0-13.685-11.128-24.78-24.87-24.78h-480.616c-13.742 0-24.87 11.094-24.87 24.779 0 0.022 0 0.034 0 0.057h-0.011c0 0 0 90.286 66.2 123.124 41.898 20.767 25.757 3.91 77.191 25.166 51.411 21.221 63.585 28.644 63.585 28.644l0.489 48.922c0 0-19.244 14.685-25.245 60.721-12.037-3.478-16.027 14.095-16.743 25.291-0.648 10.798-6.968 44.569 7.73 41.511-2.989 22.529-5.172 42.852-4.103 53.605 3.683 37.794 40.204 77.305 96.48 80.18 66.177-2.876 92.399-42.352 96.082-80.135 1.068-10.776-1.284-31.111-4.308-53.628 14.72 3.024 8.32-30.678 7.615-41.488-0.648-11.185-4.728-28.701-16.743-25.245-6.013-46.035-25.291-60.607-25.291-60.607l0.466-48.661c0.012 0 12.173-6.933 63.596-28.155z" horiz-adv-x="727" />
<glyph unicode="&#xe63f;" d="M523.189-32l-33.334 33.334c51.955 59.633 83.65 137.372 83.65 222.673s-31.695 163.040-83.638 222.649l33.322 33.346c60.394-68.154 97.133-157.761 97.133-255.994s-36.74-187.84-97.133-256.006zM431.908 59.269l-33.31 33.322c28.839 36.037 46.161 81.672 46.161 131.415s-17.322 95.366-46.149 131.403l33.31 33.334c37.219-44.651 59.656-102.060 59.656-164.737s-22.437-120.085-59.668-164.736zM292.605 36.738c-7.725 0-14.794 2.563-20.599 6.788l-0.047-0.070-119.512 86.916h-117.335c-19.394 0-35.112 15.719-35.112 35.113v117.042c0 19.358 15.672 35.054 35.019 35.101v0.093h116.398l118.949 97.321 0.117-0.141c6.051 4.975 13.694 8.064 22.132 8.064 19.394 0 35.113-15.719 35.113-35.113v-316.014c-0.012-19.382-15.731-35.101-35.125-35.101z" horiz-adv-x="621" />
<glyph unicode="&#xe640;" d="M452.998-32l-24.43 24.43c55.437 61.245 89.214 142.459 89.214 231.57s-33.776 170.325-89.214 231.56l24.43 24.44c61.668-67.519 99.302-157.354 99.302-256s-37.634-188.49-99.302-256zM385.756 35.243l-24.577 24.577c38.307 43.969 61.676 101.287 61.676 164.18s-23.369 120.212-61.668 164.163l24.577 24.586c44.521-50.25 71.609-116.32 71.609-188.749s-27.089-138.498-71.618-188.757zM318.462 102.537l-24.577 24.569c21.272 26.579 34.044 60.218 34.044 96.894s-12.772 70.315-34.036 96.885l24.577 24.577c27.434-32.923 43.977-75.251 43.977-121.463s-16.543-88.541-43.986-121.463zM215.743 85.925c-5.696 0-10.916 1.89-15.189 5.005l-0.043-0.052-88.118 64.084h-86.504c-14.3 0-25.889 11.589-25.889 25.889v86.297c0 14.274 11.555 25.846 25.82 25.88v0.069h85.831l87.695 71.756 0.087-0.103c4.462 3.668 10.096 5.946 16.319 5.946 14.299 0 25.889-11.59 25.889-25.889v-233.002c-0.008-14.291-11.599-25.88-25.898-25.88z" horiz-adv-x="553" />
<glyph unicode="&#xe641;" d="M488 336c-13.256 0-24 10.744-24 24v72h-72c-13.256 0-24 10.744-24 24s10.744 24 24 24h96c13.256 0 24-10.744 24-24v-96c0-13.256-10.744-24-24-24zM440 40h-368v368h368v-368zM392 360h-272v-272h272v272zM120 16c13.256 0 24-10.744 24-24s-10.744-24-24-24h-96c-13.256 0-24 10.744-24 24v96c0 13.256 10.744 24 24 24s24-10.744 24-24v-72h72z" />
</font>
</defs>
</svg>
